<?xml version="1.0" standalone="no"?>
<!DOCTYPE svg PUBLIC "-//W3C//DTD SVG 1.1//EN" "http://www.w3.org/Graphics/SVG/1.1/DTD/svg11.dtd" >
<svg xmlns="http://www.w3.org/2000/svg">
<metadata></metadata>
<defs>
<font id="peugeotregular" horiz-adv-x="1183" >
<font-face units-per-em="2048" ascent="1638" descent="-410" />
<missing-glyph horiz-adv-x="514" />
<glyph unicode="&#xfb01;" horiz-adv-x="1150" d="M55 825v148h140v110q0 100 34 178.5t92.5 126t133.5 71.5t161 24q185 0 349 -78v-174q-154 96 -342 96q-261 0 -261 -242v-112h615v-973h-168v825h-447v-825h-167v825h-140z" />
<glyph unicode="&#xfb02;" horiz-adv-x="1226" d="M55 825v148h140v112q0 104 34.5 183t93.5 124.5t131 68t154 22.5q211 0 363 -86v-1164q0 -108 86 -108q61 0 121 31v-158q-62 -27 -146 -27q-118 0 -172.5 70.5t-54.5 208.5v1044q-93 35 -184 35q-116 0 -187.5 -56t-71.5 -186v-114h271v-148h-271v-825h-167v825h-140z " />
<glyph horiz-adv-x="0" />
<glyph horiz-adv-x="682" />
<glyph unicode=" "  horiz-adv-x="514" />
<glyph unicode="&#x09;" horiz-adv-x="514" />
<glyph unicode="&#xa0;" horiz-adv-x="514" />
<glyph unicode="!" horiz-adv-x="602" d="M203 1384h196l-22 -993h-152zM205 0v193h194v-193h-194z" />
<glyph unicode="&#x22;" horiz-adv-x="874" d="M180 1384h168l-16 -516h-133zM528 1384h164l-14 -516h-135z" />
<glyph unicode="#" horiz-adv-x="1243" d="M35 375l24 135h213l70 383h-213l25 133h213l63 358h143l-65 -358h336l65 358h142l-66 -358h215l-22 -135h-217l-68 -381h215l-25 -135h-215l-67 -375h-142l68 375h-336l-67 -375h-144l70 375h-215zM416 510h336l67 383h-336z" />
<glyph unicode="$" d="M166 999q0 154 103.5 248t265.5 117v227h149v-219q166 -8 309 -74v-161q-163 80 -354 80q-56 0 -104.5 -10.5t-91 -33.5t-67 -65t-24.5 -100q0 -46 23.5 -81.5t63 -60t90.5 -45t107.5 -39.5t113 -40t107.5 -51t90.5 -68t63 -94.5t23.5 -127.5q0 -87 -27.5 -156 t-77 -113.5t-110.5 -72t-135 -39.5v-245h-149v235q-96 1 -196 26.5t-169 65.5v162q182 -100 383 -100q62 0 113 11.5t93 36t65.5 68.5t23.5 105t-37.5 105.5t-98 71.5t-133 50.5t-145 53t-133 68.5t-98 106.5t-37.5 158.5z" />
<glyph unicode="%" horiz-adv-x="1822" d="M106 977q0 198 85.5 317t236.5 119t236.5 -119t85.5 -317t-85.5 -317t-236.5 -119t-236.5 119t-85.5 317zM242 977q0 -144 46 -222.5t140 -78.5t140 78.5t46 222.5t-46 222.5t-140 78.5t-140 -78.5t-46 -222.5zM459 0l764 1384h141l-764 -1384h-141zM1073 408 q0 198 85.5 317t236.5 119t236 -119t85 -317q0 -199 -85 -318t-236 -119t-236.5 119.5t-85.5 317.5zM1208 408q0 -144 46.5 -223t140.5 -79t140 79t46 223t-46 222.5t-140 78.5t-140.5 -78.5t-46.5 -222.5z" />
<glyph unicode="&#x26;" horiz-adv-x="1380" d="M94 406q0 147 77 237t202 123q-102 34 -164 106t-62 187q0 89 39 158t106.5 111t153 63.5t183.5 21.5q198 0 354 -78v-168q-68 38 -163 63t-191 25q-130 0 -210.5 -51.5t-80.5 -152.5q0 -105 79.5 -158t207.5 -53h82v-154h-78q-97 0 -172.5 -27.5t-122.5 -90t-47 -154.5 q0 -140 92.5 -212.5t259.5 -72.5q190 0 280.5 107.5t90.5 320.5h-193v152h541v-152h-178q0 -284 -142.5 -435t-406.5 -151q-253 0 -395 119.5t-142 315.5z" />
<glyph unicode="'" horiz-adv-x="526" d="M180 1384h164l-14 -516h-135z" />
<glyph unicode="(" horiz-adv-x="575" d="M115 532q0 144 22.5 277t66 249t88 205.5t105.5 190.5h154q-43 -80 -57.5 -107t-54 -106.5t-56 -123t-44.5 -124t-40 -144t-22.5 -148t-10.5 -169.5q0 -66 6.5 -132.5t13.5 -119t26 -117.5t29.5 -103t39 -103t38.5 -90t45 -92.5t42.5 -81t44.5 -82.5h-154 q-61 101 -105.5 190t-88 205t-66 249t-22.5 277z" />
<glyph unicode=")" horiz-adv-x="575" d="M25 -389q43 79 58 107t53.5 106.5t55.5 122.5t44.5 124t40 144t22.5 148t10 169t-10 169t-22.5 148.5t-40 144t-44.5 124.5t-55.5 122.5t-54 107t-57.5 106.5h153q61 -101 105.5 -190.5t88 -205.5t66.5 -249t23 -277t-23 -276.5t-66.5 -249t-87.5 -205t-106 -190.5h-153z " />
<glyph unicode="*" horiz-adv-x="768" d="M74 1112l35 131l225 -90l-21 231h138l-21 -231l225 90l35 -131l-231 -55l159 -183l-106 -92l-131 209l-129 -209l-107 92l162 183z" />
<glyph unicode="+" d="M115 569v136h405v399h142v-399h407v-136h-407v-399h-142v399h-405z" />
<glyph unicode="," horiz-adv-x="534" d="M12 -272q193 115 193 303q0 73 -27 162h172q23 -90 23 -160q0 -284 -289 -424z" />
<glyph unicode="-" horiz-adv-x="798" d="M150 508v160h499v-160h-499z" />
<glyph unicode="." horiz-adv-x="534" d="M168 0v193h197v-193h-197z" />
<glyph unicode="/" horiz-adv-x="735" d="M0 0l573 1384h162l-571 -1384h-164z" />
<glyph unicode="0" d="M90 690q0 339 140.5 531t383.5 192t384 -192t141 -531q0 -336 -141 -527.5t-384 -191.5t-383.5 191t-140.5 528zM283 692q0 -170 35.5 -294.5t111 -196.5t184.5 -72t184.5 72t111.5 196.5t36 294.5t-36 294.5t-111.5 196.5t-184.5 72t-184.5 -72t-111 -196.5 t-35.5 -294.5z" />
<glyph unicode="1" d="M348 1227v157h440v-1384h-182v1227h-258z" />
<glyph unicode="2" d="M152 0v143l423 414q87 84 135.5 144t79.5 133.5t31 154.5q0 133 -80 199.5t-209 66.5q-93 0 -181.5 -32t-155.5 -82v178q155 94 356 94q96 0 177.5 -24.5t146 -74t101 -131.5t36.5 -188q0 -75 -18 -142.5t-45 -120t-75.5 -110.5t-91.5 -100t-112 -102l-295 -262h651v-158 h-874z" />
<glyph unicode="3" d="M172 55v172q69 -44 166 -71t190 -27q151 0 237.5 70.5t86.5 203.5q0 271 -334 271q-73 0 -141 -10v133l430 430h-614v157h837v-141l-434 -438q89 -1 167 -24t141.5 -68.5t100.5 -123t37 -179.5q0 -208 -138.5 -323.5t-366.5 -115.5q-209 0 -365 84z" />
<glyph unicode="4" d="M80 352v158l661 874h209v-872h162v-160h-162v-352h-174v352h-696zM266 512h510v668z" />
<glyph unicode="5" d="M176 59v164q71 -40 170 -67t189 -27q67 0 122 16t99.5 50t69 93.5t24.5 141.5q0 77 -27.5 133t-76.5 87t-108 45t-130 14q-135 0 -266 -43l-35 39l90 679h704v-157h-559l-49 -375q65 14 144 14q72 0 139 -12t134 -43t116.5 -78t80.5 -123.5t31 -173.5q0 -121 -40 -213 t-109.5 -145.5t-156 -80t-187.5 -26.5q-206 0 -369 88z" />
<glyph unicode="6" d="M141 641q0 164 31.5 296t86 219.5t130.5 146.5t162 84.5t184 25.5q193 0 320 -59v-166q-134 67 -316 67q-88 0 -159.5 -27.5t-128.5 -85.5t-90 -159t-37 -238q136 136 346 136q91 0 169.5 -26.5t140 -78.5t97 -136.5t35.5 -193.5q0 -209 -128.5 -342t-344.5 -133 q-104 0 -192 39.5t-157.5 118.5t-109 210t-39.5 302zM330 565q2 -79 19 -152t51.5 -139t96 -105.5t142.5 -39.5q129 0 208 81t79 224q0 142 -74.5 214.5t-206.5 72.5q-96 0 -184.5 -47.5t-130.5 -108.5z" />
<glyph unicode="7" d="M168 1227v157h907v-145q-239 -268 -379 -557.5t-194 -681.5h-195q57 381 198.5 694t356.5 533h-694z" />
<glyph unicode="8" d="M109 377q0 266 239 348q-207 90 -207 319q0 163 130 266t331 103t331 -103t130 -266q0 -229 -207 -319q238 -82 238 -348q0 -177 -134.5 -291.5t-357.5 -114.5t-358 114.5t-135 291.5zM297 387q0 -83 44 -142.5t111.5 -87.5t149.5 -28t149.5 28t111.5 87.5t44 142.5 q0 69 -25 119.5t-69 79t-96.5 42t-114.5 13.5t-114.5 -13.5t-96.5 -42t-69 -79t-25 -119.5zM330 1028q0 -114 78 -170.5t194 -56.5t193 56.5t77 170.5q0 111 -77.5 169t-192.5 58q-116 0 -194 -58t-78 -169z" />
<glyph unicode="9" d="M90 936q0 209 128.5 342t344.5 133q104 0 192 -39.5t157.5 -118.5t109 -210t39.5 -302q0 -164 -31.5 -296t-86 -219.5t-130.5 -146.5t-162 -84.5t-184 -25.5q-191 0 -320 60v166q136 -68 316 -68q70 0 129.5 16.5t112 54.5t89.5 96t59.5 145.5t25.5 197.5 q-135 -135 -347 -135q-91 0 -169.5 26.5t-140 78t-97 136t-35.5 193.5zM276 948q0 -142 74.5 -214t206.5 -72q97 0 185 47t130 108q-2 79 -19 152t-51.5 139t-96 105.5t-142.5 39.5q-129 0 -208 -81t-79 -224z" />
<glyph unicode=":" horiz-adv-x="534" d="M168 0v193h197v-193h-197zM168 780v193h197v-193h-197z" />
<glyph unicode=";" horiz-adv-x="534" d="M2 -272q193 115 193 303q0 73 -27 162h172q22 -86 22 -160q0 -285 -288 -424zM168 780v193h197v-193h-197z" />
<glyph unicode="&#x3c;" d="M115 571v140l954 426v-156l-772 -340l772 -340v-156z" />
<glyph unicode="=" d="M115 350v135h954v-135h-954zM115 786v136h954v-136h-954z" />
<glyph unicode="&#x3e;" d="M115 145v156l772 340l-772 340v156l954 -426v-140z" />
<glyph unicode="?" horiz-adv-x="851" d="M125 1192v164q96 57 256 57q159 0 260.5 -83t101.5 -245q0 -60 -13.5 -111t-42 -95t-49 -69t-58.5 -65q-43 -44 -59 -61.5t-37 -47t-27 -55.5t-6 -61v-129h-162v141q0 47 8.5 86.5t18 66t34.5 60.5t40.5 51.5t53.5 57.5q38 41 59 67t42.5 71.5t21.5 90.5q0 172 -209 172 q-60 0 -125.5 -18t-107.5 -45zM274 0v193h195v-193h-195z" />
<glyph unicode="@" horiz-adv-x="1593" d="M98 516q0 127 39 238t107.5 191.5t159 138.5t196 87t217.5 29q190 0 342.5 -70.5t244 -210t91.5 -325.5q0 -188 -80 -303t-233 -115t-207 111q-84 -111 -223 -111q-119 0 -197 85.5t-78 232.5q0 85 27.5 150.5t75 104t105.5 57.5t126 19q139 0 256 -63v-295 q0 -87 31.5 -124.5t99.5 -37.5q78 0 127 70t49 217q0 153 -76 263.5t-200.5 164t-280.5 53.5q-119 0 -225.5 -35.5t-189.5 -102.5t-132 -175.5t-49 -243.5q0 -126 33 -226t88.5 -166t134 -109.5t164.5 -62t184 -18.5q219 0 396 62v-125q-172 -61 -396 -61q-117 0 -221.5 24 t-198 78.5t-161 135t-107 200.5t-39.5 268zM608 496q0 -93 42.5 -143t117.5 -50q59 0 103.5 38t66.5 95v238q-52 24 -131 24q-88 0 -143.5 -47.5t-55.5 -154.5z" />
<glyph unicode="A" horiz-adv-x="1282" d="M0 0l557 1384h174l551 -1384h-197l-135 340h-637l-133 -340h-180zM373 496h520l-260 661z" />
<glyph unicode="B" horiz-adv-x="1273" d="M221 0v1384h397q252 0 382 -96t130 -266q0 -67 -21.5 -122t-58.5 -91.5t-78 -60.5t-87 -37q54 -11 101.5 -34.5t88.5 -61t64.5 -95.5t23.5 -129q0 -186 -144 -288.5t-401 -102.5h-397zM403 158h213q168 0 262.5 57t94.5 176q0 113 -93.5 174.5t-263.5 61.5h-213v-469z M403 780h203q159 0 247.5 57t88.5 173q0 115 -82 166t-244 51h-213v-447z" />
<glyph unicode="C" horiz-adv-x="1304" d="M117 692q0 324 190 522.5t512 198.5q214 0 355 -72v-161q-147 75 -345 75q-240 0 -380 -150.5t-140 -412.5q0 -261 140.5 -412t379.5 -151q199 0 359 88v-164q-164 -82 -365 -82q-326 0 -516 198t-190 523z" />
<glyph unicode="D" horiz-adv-x="1531" d="M221 0v1384h428q370 0 568 -181.5t198 -510.5q0 -330 -198 -511t-568 -181h-428zM403 158h246q274 0 424 131.5t150 402.5q0 270 -150.5 402.5t-423.5 132.5h-246v-1069z" />
<glyph unicode="E" horiz-adv-x="1189" d="M203 336v1048h829v-157h-645v-434h588v-158h-588v-299q0 -92 41.5 -135t134.5 -43h500v-158h-524q-176 0 -256 84.5t-80 251.5z" />
<glyph unicode="F" horiz-adv-x="1159" d="M221 0v1384h817v-157h-635v-459h578v-158h-578v-610h-182z" />
<glyph unicode="G" horiz-adv-x="1628" d="M117 692q0 150 42.5 272.5t115 204.5t171 138t208 81t229.5 25q282 0 514 -125v-166q-103 59 -238.5 96t-273.5 37q-92 0 -174 -18t-157 -60t-129 -105.5t-86 -160.5t-32 -219q0 -267 147.5 -415t387.5 -148q239 0 418 98v369h-435v154h607v-607q-60 -39 -132 -73 t-201 -66.5t-261 -32.5q-211 0 -373 83.5t-255 248t-93 389.5z" />
<glyph unicode="H" horiz-adv-x="1605" d="M221 0v1384h182v-589h797v589h184v-1384h-184v637h-797v-637h-182z" />
<glyph unicode="I" horiz-adv-x="624" d="M221 0v1384h182v-1384h-182z" />
<glyph unicode="J" horiz-adv-x="796" d="M41 12v162q85 -45 192 -45q97 0 138 51.5t41 169.5v1034h182v-1030q0 -192 -89 -287.5t-255 -95.5q-116 0 -209 41z" />
<glyph unicode="K" horiz-adv-x="1273" d="M221 0v1384h182v-612l633 612h217l-678 -661l699 -723h-240l-631 645v-645h-182z" />
<glyph unicode="L" horiz-adv-x="1058" d="M205 336v1048h184v-1048q0 -92 41 -135t135 -43h455v-158h-481q-175 0 -254.5 85t-79.5 251z" />
<glyph unicode="M" horiz-adv-x="1921" d="M221 0v1384h191l549 -927l548 927h191v-1384h-180v1081l-476 -811h-167l-478 811v-1081h-178z" />
<glyph unicode="N" horiz-adv-x="1591" d="M221 0v1384h164l811 -1093v1093h174v-1384h-162l-811 1092v-1092h-176z" />
<glyph unicode="O" horiz-adv-x="1667" d="M117 692q0 328 197 524.5t520 196.5t519.5 -196.5t196.5 -524.5t-196.5 -524.5t-519.5 -196.5t-520 196.5t-197 524.5zM307 692q0 -258 140.5 -410.5t386.5 -152.5t386 152t140 411t-140 411t-386 152t-386.5 -152.5t-140.5 -410.5z" />
<glyph unicode="P" horiz-adv-x="1298" d="M221 0v1384h428q251 0 391 -114t140 -320q0 -211 -139.5 -322.5t-391.5 -111.5h-246v-516h-182zM403 674h246q160 0 250 68t90 208t-90 208.5t-250 68.5h-246v-553z" />
<glyph unicode="Q" horiz-adv-x="1667" d="M117 692q0 328 197 524.5t520 196.5t519.5 -196.5t196.5 -524.5q0 -262 -127 -440.5t-350 -245.5l273 -328h-226l-221 295q-23 -2 -65 -2q-323 0 -520 196.5t-197 524.5zM307 692q0 -258 140.5 -410.5t386.5 -152.5t386 152t140 411t-140 411t-386 152t-386.5 -152.5 t-140.5 -410.5z" />
<glyph unicode="R" horiz-adv-x="1284" d="M221 0v1384h428q251 0 391 -114t140 -320q0 -166 -92 -269t-261 -134l398 -547h-209l-373 516h-240v-516h-182zM403 674h246q160 0 250 68t90 208t-90 208.5t-250 68.5h-246v-553z" />
<glyph unicode="S" horiz-adv-x="1150" d="M145 1018q0 127 66.5 218.5t173.5 134t240 42.5q211 0 360 -78v-166q-159 86 -360 86q-78 0 -141.5 -20.5t-108.5 -73.5t-45 -133q0 -51 24 -90t64.5 -64.5t92.5 -46t110 -39.5t116 -40t110 -51.5t92.5 -70t64.5 -101t24 -138.5q0 -89 -27 -160t-72.5 -118.5t-108 -79 t-131.5 -45t-146 -13.5q-105 0 -212 28t-184 73v161q186 -104 392 -104q63 0 115.5 13t96.5 40t68.5 75.5t24.5 113.5q0 61 -30 106.5t-79 71.5t-112 50.5t-128.5 43t-128.5 49.5t-112 69.5t-79 104.5t-30 152z" />
<glyph unicode="T" horiz-adv-x="1196" d="M39 1227v157h1118v-157h-467v-1227h-184v1227h-467z" />
<glyph unicode="U" horiz-adv-x="1427" d="M186 485v899h183v-895q0 -181 95 -270.5t251 -89.5q158 0 253 89.5t95 270.5v895h178v-899q0 -125 -41.5 -224t-113.5 -161.5t-166.5 -95.5t-204.5 -33t-205 33t-167.5 95.5t-114.5 161.5t-42 224z" />
<glyph unicode="V" horiz-adv-x="1280" d="M0 1384h193l454 -1159l453 1159h180l-561 -1384h-170z" />
<glyph unicode="W" horiz-adv-x="2007" d="M16 1384h189l330 -1161l385 1161h167l386 -1161l329 1161h189l-406 -1384h-196l-385 1155l-386 -1155h-196z" />
<glyph unicode="X" horiz-adv-x="1259" d="M16 0l510 698l-493 686h215l385 -534l389 534h205l-494 -677l508 -707h-215l-399 557l-404 -557h-207z" />
<glyph unicode="Y" horiz-adv-x="1191" d="M0 1384h201l403 -663l404 663h184l-508 -829v-555h-180v555z" />
<glyph unicode="Z" horiz-adv-x="1222" d="M84 0v135l821 1092h-807v157h1026v-145l-815 -1081h834v-158h-1059z" />
<glyph unicode="[" horiz-adv-x="641" d="M223 -389v1843h373v-151h-223v-1539h223v-153h-373z" />
<glyph unicode="\" horiz-adv-x="735" d="M0 1384h162l573 -1384h-164z" />
<glyph unicode="]" horiz-adv-x="641" d="M45 -236h223v1539h-223v151h373v-1843h-373v153z" />
<glyph unicode="^" d="M109 504l421 880h123l422 -880h-153l-330 694l-332 -694h-151z" />
<glyph unicode="_" horiz-adv-x="1189" d="M41 -29h1110v-137h-1110v137z" />
<glyph unicode="`" horiz-adv-x="1044" d="M322 1454h192l164 -309h-135z" />
<glyph unicode="a" horiz-adv-x="1155" d="M98 479q0 128 40.5 229t111 164.5t163 96t201.5 32.5q94 0 199 -23t168 -54v-924h-141l-13 106q-66 -66 -138 -100.5t-169 -34.5q-86 0 -161 32t-134 93t-93 160t-34 223zM270 487q0 -180 76.5 -271t202.5 -91q75 0 144 33.5t120 95.5v559q-93 35 -197 35 q-71 0 -131.5 -20t-109.5 -61t-77 -112.5t-28 -167.5z" />
<glyph unicode="b" horiz-adv-x="1159" d="M178 57v1397h166v-551q139 98 293 98q86 0 161.5 -32t134.5 -93t93.5 -159.5t34.5 -222.5q0 -128 -40.5 -229.5t-111.5 -164.5t-164 -96t-202 -33q-94 0 -198.5 26t-166.5 60zM344 160q93 -35 197 -35q56 0 106 12t94.5 39t76.5 68t50.5 102.5t18.5 138.5q0 181 -76 272 t-203 91q-68 0 -142 -32t-122 -75v-581z" />
<glyph unicode="c" horiz-adv-x="993" d="M98 487q0 233 138 373.5t370 140.5q150 0 258 -51v-162q-114 60 -248 60q-159 0 -251.5 -91t-92.5 -270t92 -270.5t250 -91.5q138 0 263 78v-164q-119 -68 -283 -68q-226 0 -361 143.5t-135 372.5z" />
<glyph unicode="d" horiz-adv-x="1155" d="M98 479q0 128 40.5 229t111.5 164.5t164 96t202 32.5q101 0 197 -26v479h168v-1454h-141l-13 106q-66 -66 -137.5 -100.5t-167.5 -34.5q-86 0 -161.5 32t-134.5 93t-93.5 160t-34.5 223zM270 487q0 -180 76 -271t203 -91q75 0 144 33.5t120 95.5v561q-88 33 -197 33 q-71 0 -131.5 -20t-109.5 -61t-77 -112.5t-28 -167.5z" />
<glyph unicode="e" horiz-adv-x="1107" d="M98 487q0 233 129.5 373.5t339.5 140.5q112 0 199.5 -39t140.5 -105.5t80 -147t27 -168.5v-115h-740q7 -81 39 -140.5t82 -94t109 -50.5t129 -16q191 0 350 88v-158q-73 -40 -169.5 -62t-192.5 -22q-107 0 -198 29t-165.5 88.5t-117 161.5t-42.5 237zM276 573h564 q0 122 -74.5 198.5t-200.5 76.5q-125 0 -198.5 -69.5t-90.5 -205.5z" />
<glyph unicode="f" horiz-adv-x="651" d="M55 825v148h140v160q0 172 93.5 261t233.5 89q68 0 129 -21v-157q-51 22 -114 22q-79 0 -127 -46.5t-48 -145.5v-162h271v-148h-271v-825h-167v825h-140z" />
<glyph unicode="g" horiz-adv-x="1155" d="M98 479q0 128 40.5 229t111.5 164.5t164 96t202 32.5q94 0 198.5 -23t166.5 -54v-908q0 -107 -36.5 -191t-100.5 -136.5t-148 -79.5t-182 -27q-194 0 -350 88v170q66 -44 156.5 -75t189.5 -31q137 0 221 68.5t84 213.5v101q-59 -56 -135.5 -86.5t-157.5 -30.5 q-87 0 -161.5 27.5t-134.5 83t-94 150t-34 218.5zM272 487q0 -333 279 -333q75 0 144 33.5t120 95.5v530q-93 35 -197 35q-71 0 -131.5 -20t-109.5 -61t-77 -112.5t-28 -167.5z" />
<glyph unicode="h" horiz-adv-x="1175" d="M174 0v1454h168v-565q139 112 311 112q158 0 259.5 -97t101.5 -277v-627h-168v614q0 112 -65 169t-165 57q-151 0 -274 -105v-735h-168z" />
<glyph unicode="i" horiz-adv-x="516" d="M174 0v973h168v-973h-168zM174 1194v203h168v-203h-168z" />
<glyph unicode="j" horiz-adv-x="516" d="M-29 -231q64 -31 111 -31q92 0 92 104v1131h168v-1112q0 -132 -56.5 -205.5t-172.5 -73.5q-72 0 -142 31v156zM174 1194v203h168v-203h-168z" />
<glyph unicode="k" horiz-adv-x="1028" d="M174 0v1454h168v-868l451 387h221l-512 -438l522 -535h-223l-459 463v-463h-168z" />
<glyph unicode="l" horiz-adv-x="587" d="M164 250v1204h168v-1221q0 -108 84 -108q64 0 121 31v-158q-61 -27 -146 -27q-118 0 -172.5 70.5t-54.5 208.5z" />
<glyph unicode="m" horiz-adv-x="1798" d="M174 0v973h152l10 -88q137 116 297 116q203 0 303 -155q81 76 162 115.5t190 39.5q149 0 248.5 -97.5t99.5 -270.5v-633h-168v616q0 109 -59.5 166.5t-155.5 57.5q-143 0 -272 -113q8 -33 8 -94v-633h-168v616q0 112 -60 168t-157 56q-139 0 -262 -105v-735h-168z" />
<glyph unicode="n" horiz-adv-x="1175" d="M174 0v973h152l10 -88q143 116 317 116q158 0 259.5 -97t101.5 -277v-627h-168v614q0 112 -65 169t-165 57q-151 0 -274 -105v-735h-168z" />
<glyph unicode="o" horiz-adv-x="1200" d="M98 485q0 234 139.5 375t362.5 141q224 0 363 -140.5t139 -375.5q0 -234 -138.5 -374t-363.5 -140q-224 0 -363 140t-139 374zM272 485q0 -169 89.5 -264.5t238.5 -95.5t239.5 95.5t90.5 264.5t-90.5 266t-239.5 97q-148 0 -238 -97t-90 -266z" />
<glyph unicode="p" horiz-adv-x="1155" d="M174 -389v1362h152l10 -88q125 116 299 116q83 0 157.5 -31t134.5 -91.5t95 -160t35 -226.5q0 -126 -37.5 -226t-103.5 -164t-153 -97.5t-188 -33.5q-142 0 -233 47v-407h-168zM342 176q96 -51 221 -51q140 0 231 92.5t91 274.5q0 177 -78.5 266.5t-204.5 89.5 q-71 0 -143 -32.5t-117 -74.5v-565z" />
<glyph unicode="q" horiz-adv-x="1155" d="M98 479q0 128 40.5 229t111.5 164.5t164 96t202 32.5q94 0 198.5 -23t166.5 -54v-1313h-168v475q-121 -115 -291 -115q-86 0 -161.5 32t-134.5 93t-93.5 160t-34.5 223zM270 487q0 -180 76 -271t203 -91q75 0 144 33.5t120 95.5v559q-93 35 -197 35q-71 0 -131.5 -20 t-109.5 -61t-77 -112.5t-28 -167.5z" />
<glyph unicode="r" horiz-adv-x="737" d="M174 0v973h152l10 -146q72 74 165.5 124t192.5 50v-176q-86 0 -183 -41t-169 -110v-674h-168z" />
<glyph unicode="s" horiz-adv-x="927" d="M92 698q0 148 114.5 225.5t293.5 77.5q84 0 173.5 -17.5t143.5 -45.5v-158q-58 31 -145.5 49.5t-171.5 18.5q-46 0 -86.5 -7t-77 -21.5t-57.5 -42t-21 -64.5q0 -44 32.5 -72t84.5 -43t115 -27.5t126 -31t115 -47.5t84.5 -84.5t32.5 -133.5t-30.5 -137.5t-85 -95t-124 -53 t-153.5 -17.5q-202 0 -353 90v162q151 -98 349 -98q103 0 167 33.5t64 107.5q0 46 -32.5 75.5t-84.5 45t-115 27.5t-126 30t-115 45.5t-84.5 80.5t-32.5 128z" />
<glyph unicode="t" horiz-adv-x="712" d="M49 825v148h139l27 309h141v-309h291v-148h-291v-542q0 -158 138 -158q83 0 170 51v-160q-82 -45 -201 -45q-129 0 -202 78.5t-73 231.5v544h-139z" />
<glyph unicode="u" horiz-adv-x="1138" d="M154 356v617h168v-611q0 -119 56.5 -178t158.5 -59q145 0 258 133v715h170v-973h-144l-10 106q-135 -135 -307 -135q-159 0 -254.5 98.5t-95.5 286.5z" />
<glyph unicode="v" horiz-adv-x="976" d="M10 973h180l302 -774l303 774h172l-404 -973h-166z" />
<glyph unicode="w" horiz-adv-x="1595" d="M20 973h173l239 -772l279 772h172l278 -772l240 772h172l-318 -973h-170l-288 780l-289 -780h-170z" />
<glyph unicode="x" horiz-adv-x="946" d="M16 0l357 489l-348 484h200l252 -355l258 355h187l-349 -481l357 -492h-203l-260 360l-262 -360h-189z" />
<glyph unicode="y" horiz-adv-x="1138" d="M154 367v606h170v-600q0 -119 56 -176.5t157 -57.5q150 0 260 129v705h168v-953q0 -212 -121 -324t-314 -112q-184 0 -329 74v168q145 -92 317 -92q126 0 202.5 68t76.5 214v84q-132 -118 -291 -118q-160 0 -256 98.5t-96 286.5z" />
<glyph unicode="z" horiz-adv-x="958" d="M94 0v117l541 710h-531v146h748v-119l-539 -709h551v-145h-770z" />
<glyph unicode="{" horiz-adv-x="669" d="M41 463v155q54 12 86 23.5t61 30.5t43.5 47t22.5 69.5t8 102.5v223q0 162 75 251t249 89h47v-151h-49q-170 0 -170 -185v-229q0 -156 -53.5 -239.5t-163.5 -110.5q110 -27 163.5 -111t53.5 -240v-241q0 -183 170 -183h49v-153h-47q-174 0 -249 89t-75 251v235 q0 75 -10.5 122t-40 77t-66.5 45.5t-104 32.5z" />
<glyph unicode="|" horiz-adv-x="573" d="M221 -389v2027h131v-2027h-131z" />
<glyph unicode="}" horiz-adv-x="669" d="M37 -236h49q170 0 170 183v241q0 156 53.5 240t163.5 111q-110 27 -163.5 110.5t-53.5 239.5v229q0 185 -170 185h-49v151h47q174 0 249 -89t75 -251v-223q0 -61 8 -102.5t22.5 -69.5t43.5 -47t61 -30.5t86 -23.5v-155q-67 -17 -104 -32.5t-66.5 -45.5t-40 -77 t-10.5 -122v-235q0 -162 -75 -251t-249 -89h-47v153z" />
<glyph unicode="~" d="M104 494q0 127 61 205.5t167 78.5q64 0 168 -35t203 -69.5t149 -34.5q96 0 96 135h131q0 -125 -61 -203.5t-166 -78.5q-63 0 -166.5 35t-202.5 69.5t-151 34.5q-96 0 -96 -137h-132z" />
<glyph unicode="&#xa1;" horiz-adv-x="602" d="M201 -389l24 971h152l22 -971h-198zM203 780v193h194v-193h-194z" />
<glyph unicode="&#xa2;" d="M174 690q0 227 108 382.5t298 193.5v325h149v-309q75 -3 151 -22t124 -46v-165q-138 69 -283 69q-77 0 -141.5 -23.5t-117 -72.5t-82.5 -134t-30 -198q0 -114 29 -200t81 -136t117 -74t142 -24q147 0 297 78v-164q-48 -30 -126.5 -50.5t-160.5 -23.5v-321h-149v331 q-190 41 -298 198.5t-108 385.5z" />
<glyph unicode="&#xa3;" d="M170 639v131h180q-43 134 -43 250q0 175 121.5 284t316.5 109q178 0 312 -70v-165q-130 77 -305 77q-126 0 -198.5 -58t-72.5 -173q0 -120 47 -254h433v-131h-390q25 -102 25 -170q0 -110 -39 -179.5t-129 -131.5h651v-158h-878v135q123 72 172 141t49 179q0 82 -31 184 h-221z" />
<glyph unicode="&#xa5;" d="M59 1384h197l344 -598l354 598h174l-415 -686h297v-112h-330v-211h330v-113h-330v-262h-184v262h-330v113h330v211h-330v112h297z" />
<glyph unicode="&#xa6;" horiz-adv-x="573" d="M221 -389v840h131v-840h-131zM221 799v839h131v-839h-131z" />
<glyph unicode="&#xa7;" horiz-adv-x="1107" d="M111 584q0 126 82 225q-72 82 -72 221q0 96 38 170.5t104 120.5t150.5 69t182.5 23q91 0 187 -21t157 -55v-168q-64 38 -156.5 62t-191.5 24q-57 0 -107.5 -11.5t-93 -35.5t-67.5 -67t-25 -101q0 -51 23.5 -89t63.5 -61t92 -40.5t109.5 -32.5t115 -32.5t109.5 -45.5 t92 -66t63.5 -99t23.5 -140q0 -132 -78 -229q70 -83 70 -217q0 -186 -128.5 -296t-340.5 -110q-223 0 -389 96v177q198 -115 391 -115q133 0 211 59.5t78 169.5q0 70 -38.5 117t-99.5 71.5t-135 43.5t-148 44t-135 61.5t-99.5 107t-38.5 170.5zM272 594q0 -63 34 -106 t94 -67.5t123.5 -41t142 -40t129.5 -52.5q32 49 32 129q0 57 -25 98.5t-63.5 65t-94.5 43t-109 31.5t-116.5 31.5t-107.5 41.5q-39 -48 -39 -133z" />
<glyph unicode="&#xa8;" horiz-adv-x="1044" d="M266 1206v197h156v-197h-156zM623 1206v197h155v-197h-155z" />
<glyph unicode="&#xa9;" horiz-adv-x="1656" d="M117 692q0 320 197.5 520.5t514.5 200.5q156 0 288.5 -53t225.5 -147.5t145 -228.5t52 -292t-52 -292t-145 -228.5t-225.5 -147.5t-288.5 -53q-317 0 -514.5 200.5t-197.5 520.5zM217 692q0 -182 77.5 -322t217 -216t319.5 -76q270 0 439.5 169.5t169.5 444.5t-169.5 445 t-439.5 170q-179 0 -319 -76.5t-217.5 -216.5t-77.5 -322zM449 690q0 197 116.5 302.5t292.5 105.5q130 0 229 -51v-138q-88 58 -219 58q-130 0 -200 -68t-70 -209q0 -132 71.5 -201t200.5 -69q123 0 232 80v-144q-112 -69 -242 -69q-187 0 -299 105.5t-112 297.5z" />
<glyph unicode="&#xaa;" horiz-adv-x="841" d="M111 1087q0 157 93 241.5t234 84.5q121 0 244 -45v-580h-121l-4 54q-85 -66 -178 -66q-115 0 -191.5 80t-76.5 231zM250 1090q0 -99 42.5 -146t110.5 -47q37 0 76 18.5t66 47.5v313q-47 16 -111 16q-79 0 -131.5 -49.5t-52.5 -152.5z" />
<glyph unicode="&#xab;" horiz-adv-x="1050" d="M68 508l307 407h160l-283 -407l283 -408h-160zM516 508l307 407h160l-283 -407l283 -408h-160z" />
<glyph unicode="&#xac;" d="M115 786v136h954v-570h-141v434h-813z" />
<glyph unicode="&#xad;" horiz-adv-x="798" d="M150 508v160h499v-160h-499z" />
<glyph unicode="&#xae;" horiz-adv-x="1114" d="M129 977q0 190 120 313t306 123t306 -123t120 -313t-120 -313t-306 -123t-306 123t-120 313zM207 977q0 -158 98 -257t250 -99q153 0 250.5 98.5t97.5 257.5t-97.5 257.5t-250.5 98.5q-152 0 -250 -99t-98 -257zM395 752v446h183q79 0 125.5 -35t46.5 -98 q0 -105 -107 -129l125 -184h-121l-106 170h-43v-170h-103zM498 1001h67q78 0 78 60q0 59 -78 59h-67v-119z" />
<glyph unicode="&#xaf;" horiz-adv-x="1044" d="M262 1235v129h520v-129h-520z" />
<glyph unicode="&#xb0;" horiz-adv-x="667" d="M98 1143q0 113 68.5 190.5t167.5 77.5q97 0 165 -77.5t68 -190.5t-68 -189.5t-165 -76.5q-99 0 -167.5 76.5t-68.5 189.5zM190 1143q0 -70 42 -117t102 -47t100.5 47t40.5 117q0 71 -40.5 118.5t-100.5 47.5t-102 -48t-42 -118z" />
<glyph unicode="&#xb1;" d="M115 0v135h954v-135h-954zM115 612v136h407v385h140v-385h407v-136h-407v-385h-140v385h-407z" />
<glyph unicode="&#xb2;" horiz-adv-x="739" d="M68 541v102l260 270q46 48 69.5 77t43.5 72t20 85q0 67 -40.5 103t-113.5 36q-117 0 -217 -69v135q99 61 236 61q128 0 208 -67.5t80 -190.5q0 -93 -43 -162t-127 -149l-184 -178h365v-125h-557z" />
<glyph unicode="&#xb3;" horiz-adv-x="739" d="M78 575v132q119 -68 231 -68q84 0 132 38.5t48 108.5q0 82 -50 113t-138 31q-49 0 -86 -6v100l246 236h-379v124h545v-112l-246 -238q109 -3 182.5 -64t73.5 -179q0 -128 -86 -201.5t-229 -73.5q-144 0 -244 59z" />
<glyph unicode="&#xb4;" horiz-adv-x="1044" d="M352 1145l164 309h193l-222 -309h-135z" />
<glyph unicode="&#xb6;" horiz-adv-x="1449" d="M102 938q0 220 134.5 333t379.5 113h258v-1773h-137v881h-121q-245 0 -379.5 113t-134.5 333zM1092 -389v1773h133v-1773h-133z" />
<glyph unicode="&#xb7;" horiz-adv-x="542" d="M172 489v193h197v-193h-197z" />
<glyph unicode="&#xb8;" horiz-adv-x="1044" d="M365 -293q52 -29 116 -29q37 0 60.5 15.5t23.5 46.5q0 61 -102 61h-72l60 199h127l-27 -100q149 -19 149 -170q0 -73 -56.5 -118.5t-154.5 -45.5q-70 0 -124 26v115z" />
<glyph unicode="&#xb9;" horiz-adv-x="585" d="M53 1266v118h355v-843h-148v725h-207z" />
<glyph unicode="&#xba;" horiz-adv-x="841" d="M102 1098q0 143 88 229t226 86t225.5 -86t87.5 -229q0 -144 -87.5 -231t-225.5 -87t-226 87t-88 231zM242 1098q0 -94 47 -146.5t127 -52.5t127 52.5t47 146.5q0 93 -47 144.5t-127 51.5t-127 -51.5t-47 -144.5z" />
<glyph unicode="&#xbb;" horiz-adv-x="1050" d="M68 100l282 408l-282 407h159l308 -407l-308 -408h-159zM516 100l283 408l-283 407h160l307 -407l-307 -408h-160z" />
<glyph unicode="&#xbc;" horiz-adv-x="1548" d="M53 1266v118h355v-843h-148v725h-207zM260 0l760 1384h135l-760 -1384h-135zM809 195v106l397 559h148v-547h114v-118h-114v-195h-135v195h-410zM958 313h261v369z" />
<glyph unicode="&#xbd;" horiz-adv-x="1622" d="M53 1266v118h355v-843h-148v725h-207zM260 0l760 1384h135l-760 -1384h-135zM950 0v102l260 271q46 49 69.5 77t43.5 71t20 85q0 67 -40 103t-113 36q-117 0 -217 -69v135q99 61 235 61q128 0 208.5 -67.5t80.5 -190.5q0 -93 -43 -162t-127 -149l-184 -178h364v-125h-557 z" />
<glyph unicode="&#xbe;" horiz-adv-x="1642" d="M78 575v132q119 -68 231 -68q84 0 132 38.5t48 108.5q0 82 -50 113t-138 31q-49 0 -86 -6v100l246 236h-379v124h545v-112l-246 -238q109 -3 182.5 -64t73.5 -179q0 -128 -86 -201.5t-229 -73.5q-144 0 -244 59zM408 0l759 1384h136l-760 -1384h-135zM905 195v106 l398 559h147v-547h115v-118h-115v-195h-135v195h-410zM1055 313h260v369z" />
<glyph unicode="&#xbf;" horiz-adv-x="675" d="M-14 -90q0 60 13.5 111t42.5 95.5t49.5 69t58.5 64.5q41 42 58 61t36.5 47.5t25.5 54.5t6 62v107h164v-119q0 -47 -8.5 -86.5t-18 -66t-34.5 -60.5t-40.5 -51.5t-53.5 -57.5q-38 -41 -59 -67t-42.5 -71.5t-21.5 -90.5q0 -172 209 -172q60 0 125.5 18t107.5 45v-163 q-98 -58 -256 -58q-159 0 -260.5 83t-101.5 245zM260 780v193h195v-193h-195z" />
<glyph unicode="&#xc0;" horiz-adv-x="1282" d="M0 0l557 1384h174l551 -1384h-197l-135 340h-637l-133 -340h-180zM356 1833h193l164 -309h-135zM373 496h520l-260 661z" />
<glyph unicode="&#xc1;" horiz-adv-x="1282" d="M0 0l557 1384h174l551 -1384h-197l-135 340h-637l-133 -340h-180zM373 496h520l-260 661zM573 1524l164 309h193l-221 -309h-136z" />
<glyph unicode="&#xc2;" horiz-adv-x="1282" d="M0 0l557 1384h174l551 -1384h-197l-135 340h-637l-133 -340h-180zM358 1524l203 309h156l203 -309h-142l-139 184l-139 -184h-142zM373 496h520l-260 661z" />
<glyph unicode="&#xc3;" horiz-adv-x="1282" d="M0 0l557 1384h174l551 -1384h-197l-135 340h-637l-133 -340h-180zM330 1550q0 112 42.5 183t133.5 71q39 0 80 -19t69 -41.5t60 -41.5t55 -19q59 0 59 115h119q0 -111 -43.5 -181.5t-134.5 -70.5q-39 0 -78.5 19t-66 41.5t-59 41.5t-60.5 19q-60 0 -60 -117h-116z M373 496h520l-260 661z" />
<glyph unicode="&#xc4;" horiz-adv-x="1282" d="M0 0l557 1384h174l551 -1384h-197l-135 340h-637l-133 -340h-180zM373 496h520l-260 661zM385 1581v197h156v-197h-156zM741 1581v197h156v-197h-156z" />
<glyph unicode="&#xc5;" horiz-adv-x="1282" d="M0 0l557 1384h174l551 -1384h-197l-135 340h-637l-133 -340h-180zM373 496h520l-260 661zM424 1677q0 86 62.5 135.5t154.5 49.5t154.5 -49.5t62.5 -135.5t-62.5 -135t-154.5 -49t-154.5 49t-62.5 135zM530 1677q0 -45 30 -69.5t81 -24.5t81 24.5t30 69.5t-30.5 70 t-80.5 25t-80.5 -25t-30.5 -70z" />
<glyph unicode="&#xc6;" horiz-adv-x="1843" d="M-55 0l821 1384h920v-157h-648v-434h590v-158h-590v-299q0 -91 43 -134.5t136 -43.5h499v-158h-526q-175 0 -254.5 84t-79.5 256h-524l-199 -340h-188zM424 496h432v731z" />
<glyph unicode="&#xc7;" horiz-adv-x="1304" d="M117 692q0 324 190 522.5t512 198.5q214 0 355 -72v-161q-147 75 -345 75q-240 0 -380 -150.5t-140 -412.5q0 -261 140.5 -412t379.5 -151q199 0 359 88v-164q-164 -82 -365 -82q-26 0 -80 4l-18 -75q149 -19 149 -170q0 -73 -56 -118.5t-154 -45.5q-71 0 -125 26v115 q52 -29 116 -29q37 0 60.5 15.5t23.5 46.5q0 61 -102 61h-72l58 193q-238 57 -372 242.5t-134 455.5z" />
<glyph unicode="&#xc8;" horiz-adv-x="1189" d="M203 336v1048h829v-157h-645v-434h588v-158h-588v-299q0 -92 41.5 -135t134.5 -43h500v-158h-524q-176 0 -256 84.5t-80 251.5zM344 1833h193l163 -309h-135z" />
<glyph unicode="&#xc9;" horiz-adv-x="1189" d="M203 336v1048h829v-157h-645v-434h588v-158h-588v-299q0 -92 41.5 -135t134.5 -43h500v-158h-524q-176 0 -256 84.5t-80 251.5zM543 1524l164 309h192l-221 -309h-135z" />
<glyph unicode="&#xca;" horiz-adv-x="1189" d="M203 336v1048h829v-157h-645v-434h588v-158h-588v-299q0 -92 41.5 -135t134.5 -43h500v-158h-524q-176 0 -256 84.5t-80 251.5zM338 1524l203 309h155l203 -309h-141l-140 184l-139 -184h-141z" />
<glyph unicode="&#xcb;" horiz-adv-x="1189" d="M203 336v1048h829v-157h-645v-434h588v-158h-588v-299q0 -92 41.5 -135t134.5 -43h500v-158h-524q-176 0 -256 84.5t-80 251.5zM362 1581v197h156v-197h-156zM719 1581v197h155v-197h-155z" />
<glyph unicode="&#xcc;" horiz-adv-x="624" d="M25 1833h192l164 -309h-135zM221 0v1384h182v-1384h-182z" />
<glyph unicode="&#xcd;" horiz-adv-x="624" d="M221 0v1384h182v-1384h-182zM248 1524l164 309h192l-221 -309h-135z" />
<glyph unicode="&#xce;" horiz-adv-x="624" d="M33 1524l203 309h155l203 -309h-141l-140 184l-139 -184h-141zM221 0v1384h182v-1384h-182z" />
<glyph unicode="&#xcf;" horiz-adv-x="624" d="M59 1581v197h156v-197h-156zM221 0v1384h182v-1384h-182zM416 1581v197h155v-197h-155z" />
<glyph unicode="&#xd0;" horiz-adv-x="1531" d="M53 643v148h168v593h428q370 0 568 -181.5t198 -510.5q0 -330 -198 -511t-568 -181h-428v643h-168zM403 158h246q274 0 424 131.5t150 402.5q0 270 -150.5 402.5t-423.5 132.5h-246v-436h404v-148h-404v-485z" />
<glyph unicode="&#xd1;" horiz-adv-x="1591" d="M221 0v1384h164l811 -1093v1093h174v-1384h-162l-811 1092v-1092h-176zM487 1544q0 112 43 183t134 71q39 0 80 -19t69 -41.5t60 -41.5t55 -19q59 0 59 115h119q0 -111 -43.5 -181.5t-134.5 -70.5q-39 0 -78.5 19t-66 41.5t-59 41.5t-60.5 19q-60 0 -60 -117h-117z" />
<glyph unicode="&#xd2;" horiz-adv-x="1667" d="M117 692q0 328 197 524.5t520 196.5t519.5 -196.5t196.5 -524.5t-196.5 -524.5t-519.5 -196.5t-520 196.5t-197 524.5zM307 692q0 -258 140.5 -410.5t386.5 -152.5t386 152t140 411t-140 411t-386 152t-386.5 -152.5t-140.5 -410.5zM559 1833h193l163 -309h-135z" />
<glyph unicode="&#xd3;" horiz-adv-x="1667" d="M117 692q0 328 197 524.5t520 196.5t519.5 -196.5t196.5 -524.5t-196.5 -524.5t-519.5 -196.5t-520 196.5t-197 524.5zM307 692q0 -258 140.5 -410.5t386.5 -152.5t386 152t140 411t-140 411t-386 152t-386.5 -152.5t-140.5 -410.5zM762 1524l164 309h192l-221 -309h-135 z" />
<glyph unicode="&#xd4;" horiz-adv-x="1667" d="M117 692q0 328 197 524.5t520 196.5t519.5 -196.5t196.5 -524.5t-196.5 -524.5t-519.5 -196.5t-520 196.5t-197 524.5zM307 692q0 -258 140.5 -410.5t386.5 -152.5t386 152t140 411t-140 411t-386 152t-386.5 -152.5t-140.5 -410.5zM553 1524l203 309h155l203 -309h-141 l-139 184l-140 -184h-141z" />
<glyph unicode="&#xd5;" horiz-adv-x="1667" d="M117 692q0 328 197 524.5t520 196.5t519.5 -196.5t196.5 -524.5t-196.5 -524.5t-519.5 -196.5t-520 196.5t-197 524.5zM307 692q0 -258 140.5 -410.5t386.5 -152.5t386 152t140 411t-140 411t-386 152t-386.5 -152.5t-140.5 -410.5zM526 1552q0 112 42.5 183t133.5 71 q39 0 80 -19t69.5 -41t60.5 -41t55 -19q59 0 59 114h119q0 -111 -43.5 -181.5t-134.5 -70.5q-39 0 -78.5 19t-66.5 41.5t-59.5 41.5t-60.5 19q-59 0 -59 -117h-117z" />
<glyph unicode="&#xd6;" horiz-adv-x="1667" d="M117 692q0 328 197 524.5t520 196.5t519.5 -196.5t196.5 -524.5t-196.5 -524.5t-519.5 -196.5t-520 196.5t-197 524.5zM307 692q0 -258 140.5 -410.5t386.5 -152.5t386 152t140 411t-140 411t-386 152t-386.5 -152.5t-140.5 -410.5zM580 1581v197h155v-197h-155z M936 1581v197h156v-197h-156z" />
<glyph unicode="&#xd7;" d="M131 270l365 367l-365 369l94 96l365 -369l364 369l97 -96l-365 -369l365 -367l-97 -96l-364 369l-365 -369z" />
<glyph unicode="&#xd8;" horiz-adv-x="1667" d="M117 692q0 328 197 524.5t520 196.5q228 0 401 -104l135 174l92 -70l-135 -172q107 -97 165 -237t58 -312q0 -328 -196.5 -524.5t-519.5 -196.5q-233 0 -404 105l-133 -176l-92 71l133 174q-106 95 -163.5 235t-57.5 312zM307 692q0 -256 139 -407l684 891 q-124 79 -296 79q-246 0 -386.5 -152.5t-140.5 -410.5zM532 209q129 -80 302 -80q246 0 386 152t140 411t-139 410z" />
<glyph unicode="&#xd9;" horiz-adv-x="1427" d="M186 485v899h183v-895q0 -181 95 -270.5t251 -89.5q158 0 253 89.5t95 270.5v895h178v-899q0 -125 -41.5 -224t-113.5 -161.5t-166.5 -95.5t-204.5 -33t-205 33t-167.5 95.5t-114.5 161.5t-42 224zM432 1833h193l163 -309h-135z" />
<glyph unicode="&#xda;" horiz-adv-x="1427" d="M186 485v899h183v-895q0 -181 95 -270.5t251 -89.5q158 0 253 89.5t95 270.5v895h178v-899q0 -125 -41.5 -224t-113.5 -161.5t-166.5 -95.5t-204.5 -33t-205 33t-167.5 95.5t-114.5 161.5t-42 224zM641 1524l164 309h192l-221 -309h-135z" />
<glyph unicode="&#xdb;" horiz-adv-x="1427" d="M186 485v899h183v-895q0 -181 95 -270.5t251 -89.5q158 0 253 89.5t95 270.5v895h178v-899q0 -125 -41.5 -224t-113.5 -161.5t-166.5 -95.5t-204.5 -33t-205 33t-167.5 95.5t-114.5 161.5t-42 224zM432 1524l203 309h156l202 -309h-141l-139 184l-140 -184h-141z" />
<glyph unicode="&#xdc;" horiz-adv-x="1427" d="M186 485v899h183v-895q0 -181 95 -270.5t251 -89.5q158 0 253 89.5t95 270.5v895h178v-899q0 -125 -41.5 -224t-113.5 -161.5t-166.5 -95.5t-204.5 -33t-205 33t-167.5 95.5t-114.5 161.5t-42 224zM455 1579v197h155v-197h-155zM811 1579v197h156v-197h-156z" />
<glyph unicode="&#xdd;" horiz-adv-x="1191" d="M0 1384h201l403 -663l404 663h184l-508 -829v-555h-180v555zM526 1524l164 309h193l-221 -309h-136z" />
<glyph unicode="&#xde;" horiz-adv-x="1298" d="M221 0v1384h182v-254h246q251 0 391 -114t140 -320q0 -211 -139.5 -322.5t-391.5 -111.5h-246v-262h-182zM403 420h246q160 0 250 68t90 208t-90 208.5t-250 68.5h-246v-553z" />
<glyph unicode="&#xdf;" horiz-adv-x="1136" d="M174 0v1096q0 181 111.5 283t283.5 102q175 0 279 -94t104 -232q0 -62 -18.5 -117t-45 -93t-53 -71.5t-45 -68.5t-18.5 -68q0 -36 23.5 -68.5t58.5 -57t75.5 -57t75.5 -67t58.5 -90.5t23.5 -123q0 -146 -94.5 -224.5t-240.5 -78.5q-138 0 -248 58v164q116 -68 248 -68 q77 0 123.5 34t46.5 107q0 55 -31.5 97t-76 72.5t-89 64t-76 89.5t-31.5 132q0 51 18 96t43 79.5t50.5 68.5t43.5 78.5t18 93.5q0 84 -60 138t-164 54q-98 0 -161.5 -56t-63.5 -171v-1102h-168z" />
<glyph unicode="&#xe0;" horiz-adv-x="1155" d="M98 479q0 128 40.5 229t111 164.5t163 96t201.5 32.5q94 0 199 -23t168 -54v-924h-141l-13 106q-66 -66 -138 -100.5t-169 -34.5q-86 0 -161 32t-134 93t-93 160t-34 223zM270 487q0 -180 76.5 -271t202.5 -91q75 0 144 33.5t120 95.5v559q-93 35 -197 35 q-71 0 -131.5 -20t-109.5 -61t-77 -112.5t-28 -167.5zM307 1454h193l164 -309h-136z" />
<glyph unicode="&#xe1;" horiz-adv-x="1155" d="M98 479q0 128 40.5 229t111 164.5t163 96t201.5 32.5q94 0 199 -23t168 -54v-924h-141l-13 106q-66 -66 -138 -100.5t-169 -34.5q-86 0 -161 32t-134 93t-93 160t-34 223zM270 487q0 -180 76.5 -271t202.5 -91q75 0 144 33.5t120 95.5v559q-93 35 -197 35 q-71 0 -131.5 -20t-109.5 -61t-77 -112.5t-28 -167.5zM479 1145l164 309h193l-222 -309h-135z" />
<glyph unicode="&#xe2;" horiz-adv-x="1155" d="M98 479q0 128 40.5 229t111 164.5t163 96t201.5 32.5q94 0 199 -23t168 -54v-924h-141l-13 106q-66 -66 -138 -100.5t-169 -34.5q-86 0 -161 32t-134 93t-93 160t-34 223zM270 487q0 -180 76.5 -271t202.5 -91q75 0 144 33.5t120 95.5v559q-93 35 -197 35 q-71 0 -131.5 -20t-109.5 -61t-77 -112.5t-28 -167.5zM274 1145l203 309h156l203 -309h-142l-139 184l-139 -184h-142z" />
<glyph unicode="&#xe3;" horiz-adv-x="1155" d="M98 479q0 128 40.5 229t111 164.5t163 96t201.5 32.5q94 0 199 -23t168 -54v-924h-141l-13 106q-66 -66 -138 -100.5t-169 -34.5q-86 0 -161 32t-134 93t-93 160t-34 223zM250 1174q0 112 42.5 182.5t133.5 70.5q49 0 100 -30t93.5 -60t70.5 -30q60 0 60 114h118 q0 -111 -43.5 -181.5t-134.5 -70.5q-39 0 -78.5 19t-66 41.5t-59 41.5t-60.5 19q-59 0 -59 -116h-117zM270 487q0 -180 76.5 -271t202.5 -91q75 0 144 33.5t120 95.5v559q-93 35 -197 35q-71 0 -131.5 -20t-109.5 -61t-77 -112.5t-28 -167.5z" />
<glyph unicode="&#xe4;" horiz-adv-x="1155" d="M98 479q0 128 40.5 229t111 164.5t163 96t201.5 32.5q94 0 199 -23t168 -54v-924h-141l-13 106q-66 -66 -138 -100.5t-169 -34.5q-86 0 -161 32t-134 93t-93 160t-34 223zM270 487q0 -180 76.5 -271t202.5 -91q75 0 144 33.5t120 95.5v559q-93 35 -197 35 q-71 0 -131.5 -20t-109.5 -61t-77 -112.5t-28 -167.5zM301 1206v197h156v-197h-156zM657 1206v197h156v-197h-156z" />
<glyph unicode="&#xe5;" horiz-adv-x="1155" d="M98 479q0 128 40.5 229t111 164.5t163 96t201.5 32.5q94 0 199 -23t168 -54v-924h-141l-13 106q-66 -66 -138 -100.5t-169 -34.5q-86 0 -161 32t-134 93t-93 160t-34 223zM270 487q0 -180 76.5 -271t202.5 -91q75 0 144 33.5t120 95.5v559q-93 35 -197 35 q-71 0 -131.5 -20t-109.5 -61t-77 -112.5t-28 -167.5zM342 1298q0 86 62.5 135.5t154.5 49.5t154.5 -49.5t62.5 -135.5t-62.5 -135t-154.5 -49t-154.5 49t-62.5 135zM449 1298q0 -45 30 -69.5t80 -24.5q51 0 81 24.5t30 69.5t-30.5 70t-80.5 25t-80 -25t-30 -70z" />
<glyph unicode="&#xe6;" horiz-adv-x="1757" d="M98 479q0 128 40.5 229t111 164.5t163 96t201.5 32.5q88 0 186.5 -20t162.5 -49q110 69 254 69q112 0 199.5 -39t140 -105.5t79.5 -146.5t27 -169v-115h-739q11 -107 64 -176.5t126.5 -97t167.5 -27.5q191 0 350 88v-158q-73 -40 -169.5 -62t-192.5 -22q-252 0 -389 146 q-76 -69 -158.5 -107.5t-202.5 -38.5q-86 0 -161 32t-134 93t-93 160t-34 223zM270 487q0 -180 76.5 -271t202.5 -91q144 0 248 113q-49 114 -49 249q0 187 86 318q-114 43 -218 43q-71 0 -131.5 -20t-109.5 -61t-77 -112.5t-28 -167.5zM926 573h565q-2 122 -76.5 198.5 t-200.5 76.5q-253 0 -288 -275z" />
<glyph unicode="&#xe7;" horiz-adv-x="993" d="M98 487q0 233 138 373.5t370 140.5q150 0 258 -51v-162q-114 60 -248 60q-159 0 -251.5 -91t-92.5 -270t92 -270.5t250 -91.5q138 0 263 78v-164q-119 -68 -283 -68h-12l-19 -71q73 -9 111.5 -52.5t38.5 -117.5q0 -73 -56.5 -118.5t-154.5 -45.5q-71 0 -125 26v115 q52 -29 117 -29q37 0 60.5 15.5t23.5 46.5q0 61 -103 61h-72l56 187q-168 40 -264.5 174t-96.5 325z" />
<glyph unicode="&#xe8;" horiz-adv-x="1107" d="M98 487q0 233 129.5 373.5t339.5 140.5q112 0 199.5 -39t140.5 -105.5t80 -147t27 -168.5v-115h-740q7 -81 39 -140.5t82 -94t109 -50.5t129 -16q191 0 350 88v-158q-73 -40 -169.5 -62t-192.5 -22q-107 0 -198 29t-165.5 88.5t-117 161.5t-42.5 237zM276 573h564 q0 122 -74.5 198.5t-200.5 76.5q-125 0 -198.5 -69.5t-90.5 -205.5zM287 1454h192l164 -309h-135z" />
<glyph unicode="&#xe9;" horiz-adv-x="1107" d="M98 487q0 233 129.5 373.5t339.5 140.5q112 0 199.5 -39t140.5 -105.5t80 -147t27 -168.5v-115h-740q7 -81 39 -140.5t82 -94t109 -50.5t129 -16q191 0 350 88v-158q-73 -40 -169.5 -62t-192.5 -22q-107 0 -198 29t-165.5 88.5t-117 161.5t-42.5 237zM276 573h564 q0 122 -74.5 198.5t-200.5 76.5q-125 0 -198.5 -69.5t-90.5 -205.5zM487 1145l164 309h193l-221 -309h-136z" />
<glyph unicode="&#xea;" horiz-adv-x="1107" d="M98 487q0 233 129.5 373.5t339.5 140.5q112 0 199.5 -39t140.5 -105.5t80 -147t27 -168.5v-115h-740q7 -81 39 -140.5t82 -94t109 -50.5t129 -16q191 0 350 88v-158q-73 -40 -169.5 -62t-192.5 -22q-107 0 -198 29t-165.5 88.5t-117 161.5t-42.5 237zM276 573h564 q0 122 -74.5 198.5t-200.5 76.5q-125 0 -198.5 -69.5t-90.5 -205.5zM279 1145l202 309h156l203 -309h-142l-139 184l-139 -184h-141z" />
<glyph unicode="&#xeb;" horiz-adv-x="1107" d="M98 487q0 233 129.5 373.5t339.5 140.5q112 0 199.5 -39t140.5 -105.5t80 -147t27 -168.5v-115h-740q7 -81 39 -140.5t82 -94t109 -50.5t129 -16q191 0 350 88v-158q-73 -40 -169.5 -62t-192.5 -22q-107 0 -198 29t-165.5 88.5t-117 161.5t-42.5 237zM276 573h564 q0 122 -74.5 198.5t-200.5 76.5q-125 0 -198.5 -69.5t-90.5 -205.5zM303 1206v197h156v-197h-156zM659 1206v197h156v-197h-156z" />
<glyph unicode="&#xec;" horiz-adv-x="516" d="M-25 1454h193l164 -309h-135zM174 0v973h168v-973h-168z" />
<glyph unicode="&#xed;" horiz-adv-x="516" d="M174 0v973h168v-973h-168zM186 1145l164 309h193l-221 -309h-136z" />
<glyph unicode="&#xee;" horiz-adv-x="516" d="M-23 1145l203 309h156l203 -309h-142l-139 184l-139 -184h-142zM174 0v973h168v-973h-168z" />
<glyph unicode="&#xef;" horiz-adv-x="516" d="M4 1206v197h156v-197h-156zM174 0v973h168v-973h-168zM360 1206v197h156v-197h-156z" />
<glyph unicode="&#xf0;" horiz-adv-x="1200" d="M98 485q0 231 137 373.5t353 142.5q109 0 194.5 -38.5t139.5 -106.5q-29 160 -125 356l-443 -75v104l402 70q-37 73 -80 143h153q28 -40 70 -119l231 41v-104l-186 -33q156 -331 156 -645q0 -138 -28.5 -249.5t-87.5 -196.5t-156.5 -131t-227.5 -46q-223 0 -362.5 140.5 t-139.5 373.5zM272 485q0 -169 90 -264.5t240 -95.5q148 0 238 97t90 267q0 173 -89 266t-239 93t-240 -96.5t-90 -266.5z" />
<glyph unicode="&#xf1;" horiz-adv-x="1175" d="M174 0v973h152l10 -88q143 116 317 116q158 0 259.5 -97t101.5 -277v-627h-168v614q0 112 -65 169t-165 57q-151 0 -274 -105v-735h-168zM274 1174q0 112 43 182.5t134 70.5q49 0 100 -30t93.5 -60t70.5 -30q59 0 59 114h119q0 -111 -43.5 -181.5t-134.5 -70.5 q-39 0 -78.5 19t-66 41.5t-59 41.5t-60.5 19q-60 0 -60 -116h-117z" />
<glyph unicode="&#xf2;" horiz-adv-x="1200" d="M98 485q0 234 139.5 375t362.5 141q224 0 363 -140.5t139 -375.5q0 -234 -138.5 -374t-363.5 -140q-224 0 -363 140t-139 374zM272 485q0 -169 89.5 -264.5t238.5 -95.5t239.5 95.5t90.5 264.5t-90.5 266t-239.5 97q-148 0 -238 -97t-90 -266zM319 1454h193l164 -309 h-135z" />
<glyph unicode="&#xf3;" horiz-adv-x="1200" d="M98 485q0 234 139.5 375t362.5 141q224 0 363 -140.5t139 -375.5q0 -234 -138.5 -374t-363.5 -140q-224 0 -363 140t-139 374zM272 485q0 -169 89.5 -264.5t238.5 -95.5t239.5 95.5t90.5 264.5t-90.5 266t-239.5 97q-148 0 -238 -97t-90 -266zM524 1145l164 309h193 l-222 -309h-135z" />
<glyph unicode="&#xf4;" horiz-adv-x="1200" d="M98 485q0 234 139.5 375t362.5 141q224 0 363 -140.5t139 -375.5q0 -234 -138.5 -374t-363.5 -140q-224 0 -363 140t-139 374zM272 485q0 -169 89.5 -264.5t238.5 -95.5t239.5 95.5t90.5 264.5t-90.5 266t-239.5 97q-148 0 -238 -97t-90 -266zM317 1145l203 309h156 l203 -309h-142l-139 184l-139 -184h-142z" />
<glyph unicode="&#xf5;" horiz-adv-x="1200" d="M98 485q0 234 139.5 375t362.5 141q224 0 363 -140.5t139 -375.5q0 -234 -138.5 -374t-363.5 -140q-224 0 -363 140t-139 374zM272 485q0 -169 89.5 -264.5t238.5 -95.5t239.5 95.5t90.5 264.5t-90.5 266t-239.5 97q-148 0 -238 -97t-90 -266zM293 1174q0 112 42.5 182.5 t133.5 70.5q49 0 100 -30t93.5 -60t70.5 -30q60 0 60 114h118q0 -111 -43.5 -181.5t-134.5 -70.5q-39 0 -78.5 19t-66 41.5t-59 41.5t-60.5 19q-59 0 -59 -116h-117z" />
<glyph unicode="&#xf6;" horiz-adv-x="1200" d="M98 485q0 234 139.5 375t362.5 141q224 0 363 -140.5t139 -375.5q0 -234 -138.5 -374t-363.5 -140q-224 0 -363 140t-139 374zM272 485q0 -169 89.5 -264.5t238.5 -95.5t239.5 95.5t90.5 264.5t-90.5 266t-239.5 97q-148 0 -238 -97t-90 -266zM344 1206v197h156v-197 h-156zM700 1206v197h156v-197h-156z" />
<glyph unicode="&#xf7;" d="M115 569v136h954v-136h-954zM500 154v180h184v-180h-184zM500 940v180h184v-180h-184z" />
<glyph unicode="&#xf8;" horiz-adv-x="1200" d="M98 485q0 234 139.5 375t362.5 141q151 0 266 -67l109 145l82 -61l-109 -144q73 -69 113.5 -168.5t40.5 -220.5q0 -234 -138.5 -374t-363.5 -140q-144 0 -266 66l-101 -135l-81 63l98 133q-152 146 -152 387zM272 485q0 -162 78 -252l422 572q-78 43 -172 43 q-148 0 -238 -97t-90 -266zM428 166q74 -41 172 -41q149 0 239.5 95.5t90.5 264.5q0 154 -80 254z" />
<glyph unicode="&#xf9;" horiz-adv-x="1138" d="M154 356v617h168v-611q0 -119 56.5 -178t158.5 -59q145 0 258 133v715h170v-973h-144l-10 106q-135 -135 -307 -135q-159 0 -254.5 98.5t-95.5 286.5zM295 1454h192l164 -309h-135z" />
<glyph unicode="&#xfa;" horiz-adv-x="1138" d="M154 356v617h168v-611q0 -119 56.5 -178t158.5 -59q145 0 258 133v715h170v-973h-144l-10 106q-135 -135 -307 -135q-159 0 -254.5 98.5t-95.5 286.5zM485 1145l164 309h193l-221 -309h-136z" />
<glyph unicode="&#xfb;" horiz-adv-x="1138" d="M154 356v617h168v-611q0 -119 56.5 -178t158.5 -59q145 0 258 133v715h170v-973h-144l-10 106q-135 -135 -307 -135q-159 0 -254.5 98.5t-95.5 286.5zM283 1145l202 309h156l203 -309h-142l-139 184l-139 -184h-141z" />
<glyph unicode="&#xfc;" horiz-adv-x="1138" d="M154 356v617h168v-611q0 -119 56.5 -178t158.5 -59q145 0 258 133v715h170v-973h-144l-10 106q-135 -135 -307 -135q-159 0 -254.5 98.5t-95.5 286.5zM307 1206v197h156v-197h-156zM664 1206v197h155v-197h-155z" />
<glyph unicode="&#xfd;" horiz-adv-x="1138" d="M154 367v606h170v-600q0 -119 56 -176.5t157 -57.5q150 0 260 129v705h168v-953q0 -212 -121 -324t-314 -112q-184 0 -329 74v168q145 -92 317 -92q126 0 202.5 68t76.5 214v84q-132 -118 -291 -118q-160 0 -256 98.5t-96 286.5zM487 1145l164 309h193l-221 -309h-136z " />
<glyph unicode="&#xfe;" horiz-adv-x="1150" d="M174 -389v1843h164v-565q121 112 295 112q83 0 157.5 -31t133.5 -91.5t94 -160t35 -226.5q0 -126 -37.5 -226t-103.5 -164t-152.5 -97.5t-186.5 -33.5q-141 0 -235 47v-407h-164zM338 176q99 -51 221 -51q140 0 231 92.5t91 274.5q0 177 -78.5 266.5t-204.5 89.5 q-71 0 -143 -32.5t-117 -74.5v-565z" />
<glyph unicode="&#xff;" horiz-adv-x="1138" d="M154 367v606h170v-600q0 -119 56 -176.5t157 -57.5q150 0 260 129v705h168v-953q0 -212 -121 -324t-314 -112q-184 0 -329 74v168q145 -92 317 -92q126 0 202.5 68t76.5 214v84q-132 -118 -291 -118q-160 0 -256 98.5t-96 286.5zM309 1206v197h156v-197h-156zM666 1206 v197h155v-197h-155z" />
<glyph unicode="&#x152;" horiz-adv-x="2353" d="M117 692q0 329 196 525t518 196q183 0 320.5 -70.5t218.5 -183.5v225h825v-157h-647v-434h590v-158h-590v-299q0 -92 43 -135t138 -43h497v-158h-526q-290 0 -318 262q-76 -137 -219 -214t-332 -77q-322 0 -518 196t-196 525zM307 692q0 -258 140 -410.5t384 -152.5 q246 0 386.5 152.5t140.5 410.5t-140.5 410.5t-386.5 152.5q-244 0 -384 -152.5t-140 -410.5z" />
<glyph unicode="&#x153;" horiz-adv-x="1925" d="M98 485q0 234 139.5 375t362.5 141q144 0 247.5 -60.5t158.5 -172.5q52 112 148 172.5t232 60.5q90 0 164.5 -26t126 -70t86.5 -103.5t51.5 -125t16.5 -135.5v-115h-737q7 -81 38.5 -140.5t81 -94t109 -50.5t129.5 -16q187 0 350 88v-158q-75 -39 -171.5 -61.5 t-190.5 -22.5q-151 0 -263.5 56.5t-168.5 177.5q-56 -112 -160 -173t-248 -61q-224 0 -363 140t-139 374zM272 485q0 -169 89.5 -264.5t238.5 -95.5t239.5 95.5t90.5 264.5t-90.5 266t-239.5 97q-148 0 -238 -97t-90 -266zM1096 573h563q-2 122 -76.5 198.5t-198.5 76.5 q-253 0 -288 -275z" />
<glyph unicode="&#x178;" horiz-adv-x="1191" d="M0 1384h201l403 -663l404 663h184l-508 -829v-555h-180v555zM342 1585v197h156v-197h-156zM698 1585v197h156v-197h-156z" />
<glyph unicode="&#x2c6;" horiz-adv-x="1044" d="M242 1145l202 309h156l203 -309h-141l-140 184l-139 -184h-141z" />
<glyph unicode="&#x2dc;" horiz-adv-x="1044" d="M213 1174q0 112 42.5 182.5t133.5 70.5q49 0 100 -30t93.5 -60t70.5 -30q60 0 60 114h118q0 -111 -43.5 -181.5t-134.5 -70.5q-39 0 -78.5 19t-66 41.5t-59 41.5t-60.5 19q-59 0 -59 -116h-117z" />
<glyph unicode="&#x2000;" horiz-adv-x="931" />
<glyph unicode="&#x2001;" horiz-adv-x="1862" />
<glyph unicode="&#x2002;" horiz-adv-x="931" />
<glyph unicode="&#x2003;" horiz-adv-x="1862" />
<glyph unicode="&#x2004;" horiz-adv-x="620" />
<glyph unicode="&#x2005;" horiz-adv-x="465" />
<glyph unicode="&#x2006;" horiz-adv-x="310" />
<glyph unicode="&#x2007;" horiz-adv-x="310" />
<glyph unicode="&#x2008;" horiz-adv-x="232" />
<glyph unicode="&#x2009;" horiz-adv-x="372" />
<glyph unicode="&#x200a;" horiz-adv-x="103" />
<glyph unicode="&#x2010;" horiz-adv-x="798" d="M150 508v160h499v-160h-499z" />
<glyph unicode="&#x2011;" horiz-adv-x="798" d="M150 508v160h499v-160h-499z" />
<glyph unicode="&#x2012;" horiz-adv-x="798" d="M150 508v160h499v-160h-499z" />
<glyph unicode="&#x2013;" horiz-adv-x="1206" d="M150 508v160h907v-160h-907z" />
<glyph unicode="&#x2014;" horiz-adv-x="2095" d="M150 510v158h1794v-158h-1794z" />
<glyph unicode="&#x2018;" horiz-adv-x="526" d="M115 1020q0 120 55.5 223t167.5 170l74 -100q-144 -106 -144 -281q0 -77 31 -162h-160q-24 65 -24 150z" />
<glyph unicode="&#x2019;" horiz-adv-x="526" d="M115 940q143 105 143 283q0 76 -31 161h160q25 -68 25 -149q0 -120 -56 -224t-168 -171z" />
<glyph unicode="&#x201a;" horiz-adv-x="526" d="M115 -217q143 105 143 283q0 76 -31 161h160q25 -68 25 -149q0 -120 -56 -224t-168 -171z" />
<glyph unicode="&#x201c;" horiz-adv-x="874" d="M115 1018q0 121 56 224.5t167 170.5l74 -100q-144 -106 -144 -283q0 -77 31 -162h-160q-24 65 -24 150zM463 1018q0 121 56 224.5t167 170.5l74 -100q-144 -106 -144 -283q0 -77 31 -162h-160q-24 65 -24 150z" />
<glyph unicode="&#x201d;" horiz-adv-x="874" d="M115 940q143 105 143 283q0 76 -31 161h160q25 -68 25 -149q0 -120 -56 -224t-168 -171zM463 940q143 105 143 283q0 76 -31 161h160q25 -68 25 -149q0 -121 -56 -224.5t-167 -170.5z" />
<glyph unicode="&#x201e;" horiz-adv-x="874" d="M115 -217q143 105 143 283q0 76 -31 161h160q25 -68 25 -149q0 -120 -56 -224t-168 -171zM463 -217q143 105 143 283q0 76 -31 161h160q25 -68 25 -149q0 -121 -56 -224.5t-167 -170.5z" />
<glyph unicode="&#x2022;" horiz-adv-x="669" d="M123 655q0 100 59 162t154 62t154 -62t59 -162t-59 -160.5t-154 -60.5t-154 60.5t-59 160.5z" />
<glyph unicode="&#x2026;" horiz-adv-x="1533" d="M168 0v193h197v-193h-197zM670 0v193h194v-193h-194zM1174 0v193h192v-193h-192z" />
<glyph unicode="&#x202f;" horiz-adv-x="372" />
<glyph unicode="&#x2039;" horiz-adv-x="602" d="M68 508l307 407h160l-283 -407l283 -408h-160z" />
<glyph unicode="&#x203a;" horiz-adv-x="602" d="M68 100l282 408l-282 407h159l308 -407l-308 -408h-159z" />
<glyph unicode="&#x205f;" horiz-adv-x="465" />
<glyph unicode="&#x20ac;" d="M43 489l29 113h133q0 16 -1 45t-1 45q0 60 6 121h-166l29 113h151q25 126 80.5 221.5t132 152.5t166 85t189.5 28q157 0 274 -47v-160q-101 49 -256 49q-159 0 -265.5 -79t-137.5 -250h585l-28 -113h-572q-8 -52 -8 -119q0 -30 4 -92h524l-28 -113h-477q18 -97 59 -168 t98.5 -112t124 -60.5t143.5 -19.5q122 0 244 66v-166q-122 -58 -284 -58q-100 0 -191 31t-169.5 92t-133.5 162.5t-76 232.5h-178z" />
<glyph unicode="&#x2122;" horiz-adv-x="1533" d="M35 1276v108h516v-108h-195v-459h-131v459h-190zM686 817v567h166l178 -337l178 337h166v-567h-127v408l-157 -299h-119l-158 299v-408h-127z" />
<glyph unicode="&#x25fc;" horiz-adv-x="972" d="M0 0v973h973v-973h-973z" />
</font>
</defs>
</svg>
